#TITLE:Bloodbath;
#SUBTITLE:;
#ARTIST:Metalcan;
#TITLETRANSLIT:;
#SUBTITLETRANSLIT:;
#ARTISTTRANSLIT:;
#CREDIT:;
#BANNER:;
#BACKGROUND:;
#LYRICSPATH:;
#CDTITLE:;
#MUSIC:Bloodebath.mp3;
#OFFSET:-0.200;
#SAMPLESTART:7.700;
#SAMPLELENGTH:12.000;
#SELECTABLE:YES;
#BPMS:0.000=800.013;
#STOPS:;
#BGCHANGES:;
// cache tags:
#FIRSTBEAT:0.000;
#LASTBEAT:342.229;
#SONGFILENAME:Songs/nhac/Bloodebath/Bloodebath.sm;
#HASMUSIC:1;
#HASBANNER:0;
#MUSICLENGTH:26.749;
// end cache tags

//---------------dance-single - ----------------
#NOTES:
     dance-single:
     :
     Challenge:
     1:
     1.000,1.000,1.000,0.262,1.000,234.000,36.000,7.000,0.000,0.000:
2002
0000
0000
0000
,
0000
0000
0000
0000
,
0000
0000
0000
0000
,
0000
0000
0000
0000
,
0000
0000
0000
0000
,
0000
0000
0000
0000
,
0000
0000
0000
0000
,
0000
0000
0000
0000
,
0000
0000
0000
3003
,
0000
0000
0000
0000
,
0000
0000
0110
0000
,
1001
0000
0000
0000
,
0000
0110
0000
1001
,
0000
0000
0000
0000
,
0000
0000
0001
0000
0010
0000
1000
0000
0000
0000
0000
0000
,
0000
0000
0000
0000
0000
0000
0000
0001
0000
0000
1000
0000
,
0001
0000
0000
0000
0010
1000
0000
0000
0001
0010
0000
0000
,
1000
0000
0000
0001
0000
0000
0000
0000
0000
0000
1000
0010
,
0000
0000
0000
0000
0100
0000
0000
0000
1000
0000
0000
0000
,
0100
0000
0100
0000
,
0000
0100
0000
0000
1000
0000
0000
0000
0000
0100
0000
1000
,
0000
0000
0100
0000
0000
1000
0000
0100
0000
0000
1000
0000
,
0000
0100
0000
0000
0000
1000
0100
0000
0000
0000
0000
0000
,
0000
0000
0000
0000
0000
0001
0000
0100
0000
0000
0000
0001
,
0000
0000
0100
0000
0000
0001
0000
0100
0000
0000
0001
0000
,
0000
0100
0000
0000
0001
0000
0100
0000
0000
0001
0000
0000
,
0100
0000
0000
0001
0100
0000
0000
0000
0000
0000
0000
0000
,
0000
0000
0000
0000
0001
0010
0000
0000
0000
0001
0000
0000
,
0000
0010
0000
0001
0000
0010
0000
0000
0001
0000
0000
0010
,
0000
0001
0000
0000
0010
0000
0001
0000
0000
0010
0000
0000
,
0001
0000
0000
0010
0000
0001
0000
0010
0000
0000
0000
0001
,
0000
0010
0000
0000
0000
0000
0000
0010
0000
1000
0000
0000
,
0010
0000
1000
0000
0000
0000
0010
0000
1000
0000
0010
0000
,
0000
0000
0000
0000
0010
0000
1000
0000
0000
0010
0000
0000
,
1000
0000
0010
0000
0000
1000
0000
0010
0000
0000
1000
0000
,
0000
0000
0100
0000
0000
0000
1000
0000
0100
0000
0000
1000
,
0000
0000
0100
0000
1000
0000
0000
0100
0000
0000
1000
0000
,
0100
0000
0000
1000
0000
0000
0100
0000
1000
0000
0000
0100
,
0000
1000
0000
0000
0100
0000
0000
1000
0000
0100
1000
0000
,
0000
0000
0000
0000
0000
0000
0001
0000
0010
0000
0000
0000
,
0001
0000
0010
0000
0000
0000
0001
0000
0010
0000
0000
0001
,
0000
0010
0000
0000
0001
0000
0000
0010
0000
0001
0000
0000
,
0010
0000
0001
0000
0000
0010
0000
0000
0001
0000
0000
0000
,
0000
0000
0100
0010
,
0100
0000
0000
0010
0000
0100
0000
0000
0010
0000
0000
0100
,
0000
0000
0000
0000
0000
1001
0000
0000
0000
0000
0000
0000
,
0000
0000
0000
0000
0000
1001
0000
0000
0000
0000
0000
0000
,
0000
0000
0000
0000
0000
0000
0000
0001
0000
0000
0010
0000
,
1000
0000
0000
0001
0000
0010
0000
1000
0000
0000
0000
0011
,
0000
0000
1000
0000
0000
0000
0000
0001
0000
0000
0000
1000
,
0000
0000
0100
0001
0000
0000
0000
0000
1000
0000
0000
0101
,
0000
0000
0000
1000
0000
0000
0001
0000
0010
0000
1000
0000
,
0000
0001
0000
0000
0010
0000
1000
0000
0000
0000
0011
0000
,
0000
1000
0000
0000
0000
0001
0000
0000
0000
0000
1000
0000
,
0001
0000
0100
0000
0000
0000
1000
0000
0101
0000
0000
1000
,
0000
0000
0010
0001
,
0000
0000
0000
1000
0000
0000
0010
0000
0001
0000
0100
0000
,
0000
1010
0000
0000
0101
0000
0000
1010
0000
0000
0000
0000
,
0000
0000
0000
0000
0000
0000
0100
0000
0100
1000
0010
0000
,
0001
0100
0000
0010
1000
0000
0001
0100
0000
1000
0010
0000
,
0001
0100
0000
0010
0000
1000
0000
0001
0000
0000
0000
0000
,
1000
0000
0000
0011
0100
0000
0000
0000
0010
0000
0000
0101
,
0000
0000
0000
1010
0000
0000
2000
0001
0000
0000
0000
0000
,
0000
0000
0000
0000
0000
0000
0000
0000
0000
3000
0110
0000
,
0000
0000
1000
0000
0000
0000
0000
0000
1100
0000
0000
0100
,
0000
0000
0000
1000
0000
0000
0100
0000
0000
0000
0000
0001
,
0000
0010
0000
1000
0000
0001
0000
0010
0000
0000
0000
0001
,
0000
0010
0000
0000
0000
1000
0000
0101
0000
0000
0010
0000
,
0000
0001
0000
0110
0000
0000
0000
1000
0000
0000
0000
0101
,
0000
1010
0000
0000
0000
0000
0000
0000
2002
0000
0000
0000
,
0000
0000
0000
0000
,
0000
0000
0000
0000
0000
3003
0000
0010
0000
0001
0000
1000
,
0000
0000
0010
0001
0100
0000
1000
0000
0010
0000
0001
0000
,
0010
1000
0000
0000
0001
0000
0000
0000
0000
1010
0000
0000
,
0101
0000
0000
0000
1000
0000
0011
0000
0000
0000
0000
1100
,
0000
1100
0110
1001
,
0000
0000
1001
0000
,
1001
0000
0110
0000
,
0000
0000
0000
1001
,
0000
0000
0000
0000
0000
0000
0000
0000
2002
0000
0000
0000
,
0000
0000
0000
0000
,
0000
0000
0000
0000
,
0000
0000
0000
0000
,
0000
0000
0000
0000
,
0000
0000
0000
0000
,
0000
0000
0000
0000
0000
0000
0000
0000
0000
0000
0000
0000
0000
0000
0000
0000
0000
0000
0000
0000
0000
0000
0000
0000
0000
0000
0000
0000
0000
0000
0000
0000
0000
0000
0000
0000
0000
0000
0000
0000
0000
0000
0000
0000
0000
0000
0000
0000
0000
0000
0000
0000
0000
0000
0000
0000
0000
0000
0000
0000
0000
0000
0000
0000
0000
0000
0000
0000
0000
0000
0000
0000
0000
0000
0000
0000
0000
0000
0000
0000
0000
0000
0000
0000
0000
0000
0000
0000
0000
0000
0000
0000
0000
0000
0000
0000
0000
0000
0000
0000
0000
0000
0000
0000
0000
0000
0000
3003
0000
0000
0000
0000
0000
0000
0000
0000
0000
0000
0000
0000
0000
0000
0000
0000
0000
0000
0000
0000
0000
0000
0000
0000
0000
0000
0000
0000
0000
0000
0000
0000
0000
0000
0000
0000
0000
0000
0000
0000
0000
0000
0000
0000
0000
0000
0000
0000
0000
0000
0000
0000
0000
0000
0000
0000
0000
0000
0000
0000
0000
0000
0000
0000
0000
0000
0000
0000
0000
0000
0000
0000
0000
0000
0000
0000
0000
0000
0000
0000
0000
0000
0000
0000
;
